2160p arrow 2018 movies ita game of thrones house of cards titans s01e04 Supernatural Venom Incredibles 2 Outlander big bang theory español ddr ufc 230 UFC 2018 ITA ncis The Predator alpha Evo 0 the big bang theory s12e07 Empire ettv fabbriciani arrow español survivor Star Trek Discovery The Walking dead damerini Greys Anatomy ethd Doctor Who Supergirl haberkamp ita 2018 star trek discovery español dtone van helsing in mo yang WWE champian fulton It the flash titans seal team vikings blindspot coral egan shameless etrg etmovies venom ita evo office 2019 fgt Lucifer oceans eleven Big Bang Theory NFL Dtone great british bake off s09e10 ray donovan the nun The Equalizer 2 modern family Gotham A Discovery of Witches Outlander S04E01 hindi doctor who s11e05 the big bang theory 
Warning! Do not Download Without a VPN!
Your IP Address is .   Location is
Download and surf securely, stream unlimited and protect your personal data!
We strongly recommend using SpyOFF VPN!
Become Anonymous with SpyOFF
ETTV Recommended TV Shows
UFC 230 Cormier vs Lewis HDTV x264-Star [TJET] torrent
Ray.Donovan.S06E02.WEBRip.x264-PBS[ettv] torrent
Outlander.S04E01.WEB.H264-MEMENTO[ettv] torrent
Doctor.Who.2005.S11E05.HDTV.x264-MTB[ettv] torrent

ETTV Recommended Xvid
The.Meg.2018.BDRip.XviD.AC3-EVO[EtMovies] torrent
The.First.Date.2018.HDRip.XviD.AC3-EVO[EtMovies] torrent
BlacKkKlansman.2018.BRRip.XviD.AC3-EVO[EtMovies] torrent
The Hate U Give.2018.HC.HDRip.XviD.AC3-EVO[EtMovies] torrent

ETTV Recommended HD
The Marine 6.Close Quarters.720p.WEB-DL.H264.AC3-EVO[EtHD] torrent
The Hate U Give.2018.1080p.HC.HDRip.X264.AC3-EVO[EtHD] torrent
Generational.Sins.2017.1080p.AMZN.WEB-DL.DDP5.1.H.264-NTb[EtHD] torrent
Robin.Hood.The.Rebellion.2018.1080p.WEB-DL.DD5.1.H264-CMRG[EtHD] torrent

ETTV Recommended UHD
The.Matrix.Revolutions.2003.Multi.mUHD.2160p.x265.HDR.DD.5.1-DTOne torrent
The.Fog.1980.Multi.UHD.2160p.Bluray.x265.HDR.TS.5.1-DTOne torrent
They.Live.1988.Multi.UHD.2160p.Bluray.x265.HDR.DTS.5.1-DTOne torrent
Blade Runner 2049 (2017) 4K UHD BluRay x264 DTS Alien4 torrent

ETTV Recommended Cam
Hunter Killer 2018 HDCAM.XViD.AC3-ETRG torrent
Replicas 2018.HDCAM.x264.AC3-ETRG torrent
Bohemian Rhapsody 2018 HDCAM.XViD.AC3-ETRG torrent
The Nutcracker and the Four Realms 2018 HDCAM x264 AC3-ETRG torrent

ETTV Recommended Foreign
Raatchasan (2018) 720p x265 AAC 5.1 - DTOne torrent
Dans la brume 2018 1080p BluRay DD5.1 x264-SPEED[EtHD] torrent
Sleepy Hollow (1999) 720p BluRay x264 Dual Audio [Hindi DD5.1 - English DD5.1] - ESUB ~ Ranvijay torrent
5 Weddings 2018 PreDvd Hindi 720p x264 AAC - mkvCinemas torrent

Social


Download Torrent "Blindspot (2015) Season 3 S03 + Extras (1080p BluRay x265 HEVC 10bit AAC 5...."

IMDB Details
Description:

N/A

Genre:

N/A

Download Torrent (Magnet)
Download Torrent (File)
Seeds: 195
Leechers: 634
Completed: 1,017 
Last Checked: 18-09-2018 03:38:05


Loading...
Details
Title:Blindspot (2015) Season 3 S03 + Extras (1080p BluRay x265 HEVC 10bit AAC 5....
Description:


Note from Encoder:
Includes bonus content as usual. Thanks to Heisenberg for preparing for me!



Encode Screenshots (Click for full quality)




Media Information
General
Format                                   : Matroska
Format version                           : Version 4 / Version 2
File size                                : 1.15 GiB
Duration                                 : 43 min 9 s
Overall bit rate                         : 3 828 kb/s
Encoded date                             : UTC 2018-09-09 12:01:17
Writing application                      : mkvmerge v20.0.0 ('I Am The Sun') 64-bit
Writing library                          : libebml v1.3.5 + libmatroska v1.4.8
Cover                                    : Yes
Attachments                              : cover.jpg
Writing frontend                         : StaxRip v1.7.0.6

Video
ID                                       : 1
Format                                   : HEVC
Format/Info                              : High Efficiency Video Coding
Format profile                           : Main [email protected]@Main
Codec ID                                 : V_MPEGH/ISO/HEVC
Duration                                 : 43 min 9 s
Bit rate                                 : 3 357 kb/s
Width                                    : 1 920 pixels
Height                                   : 1 080 pixels
Display aspect ratio                     : 16:9
Frame rate mode                          : Constant
Frame rate                               : 23.976 (24000/1001) FPS
Color space                              : YUV
Chroma subsampling                       : 4:2:0
Bit depth                                : 10 bits
Bits/(Pixel*Frame)                       : 0.068
Stream size                              : 1.01 GiB (88%)
Writing library                          : x265 2.8+66-88ee12651e30:[Windows][MSVC 1900][64 bit] 10bit
Encoding settings                        : cpuid=1111039 / frame-threads=3 / numa-pools=8 / wpp / no-pmode / no-pme / no-psnr / no-ssim / log-level=2 / input-csp=1 / input-res=1920x1080 / interlace=0 / total-frames=62084 / level-idc=0 / high-tier=1 / uhd-bd=0 / ref=5 / no-allow-non-conformance / no-repeat-headers / annexb / no-aud / no-hrd / info / hash=0 / no-temporal-layers / open-gop / min-keyint=23 / keyint=250 / gop-lookahead=0 / bframes=8 / b-adapt=2 / b-pyramid / bframe-bias=0 / rc-lookahead=80 / lookahead-slices=4 / scenecut=40 / radl=0 / no-intra-refresh / ctu=64 / min-cu-size=8 / no-rect / no-amp / max-tu-size=32 / tu-inter-depth=1 / tu-intra-depth=1 / limit-tu=0 / rdoq-level=2 / dynamic-rd=0.00 / no-ssim-rd / signhide / no-tskip / nr-intra=0 / nr-inter=0 / no-constrained-intra / no-strong-intra-smoothing / max-merge=4 / limit-refs=3 / limit-modes / me=3 / subme=5 / merange=57 / temporal-mvp / weightp / weightb / no-analyze-src-pics / deblock=-3:-3 / no-sao / no-sao-non-deblock / rd=4 / no-early-skip / rskip / no-fast-intra / no-tskip-fast / no-cu-lossless / b-intra / no-splitrd-skip / rdpenalty=0 / psy-rd=1.20 / psy-rdoq=2.00 / no-rd-refine / no-lossless / cbqpoffs=0 / crqpoffs=0 / rc=crf / crf=21.0 / qcomp=0.60 / qpstep=4 / stats-write=0 / stats-read=0 / ipratio=1.40 / pbratio=1.30 / aq-mode=3 / aq-strength=1.00 / cutree / zone-count=0 / no-strict-cbr / qg-size=32 / no-rc-grain / qpmax=69 / qpmin=0 / no-const-vbv / sar=0 / overscan=0 / videoformat=5 / range=0 / colorprim=2 / transfer=2 / colormatrix=2 / chromaloc=0 / display-window=0 / max-cll=0,0 / min-luma=0 / max-luma=1023 / log2-max-poc-lsb=8 / vui-timing-info / vui-hrd-info / slices=1 / no-opt-qp-pps / no-opt-ref-list-length-pps / no-multi-pass-opt-rps / scenecut-bias=0.05 / no-opt-cu-delta-qp / no-aq-motion / no-hdr / no-hdr-opt / no-dhdr10-opt / no-idr-recovery-sei / analysis-reuse-level=5 / scale-factor=0 / refine-intra=0 / refine-inter=0 / refine-mv=0 / no-limit-sao / ctu-info=0 / no-lowpass-dct / refine-mv-type=0 / copy-pic=1 / max-ausize-factor=1.0 / no-dynamic-refine / no-single-sei
Default                                  : Yes
Forced                                   : No

Audio
ID                                       : 2
Format                                   : AAC
Format/Info                              : Advanced Audio Codec
Format profile                           : LC
Codec ID                                 : A_AAC
Duration                                 : 43 min 9 s
Bit rate                                 : 460 kb/s
Channel(s)                               : 6 channels
Channel positions                        : Front: L C R, Side: L R, LFE
Sampling rate                            : 48.0 kHz
Frame rate                               : 46.875 FPS (1024 spf)
Compression mode                         : Lossy
Delay relative to video                  : 20 ms
Stream size                              : 142 MiB (12%)
Language                                 : English
Default                                  : No
Forced                                   : No

Subtitle
ID                                       : 3
Format                                   : VobSub
Muxing mode                              : zlib
Codec ID                                 : S_VOBSUB
Codec ID/Info                            : Picture based subtitle format used on DVDs
Duration                                 : 42 min 29 s
Bit rate                                 : 13.1 kb/s
Count of elements                        : 782
Stream size                              : 3.97 MiB (0%)
Language                                 : English
Default                                  : No
Forced                                   : No

Menu
00:00:00.000                             : en:Chapter 01
00:06:01.069                             : en:Chapter 02
00:18:38.367                             : en:Chapter 03
00:25:05.170                             : en:Chapter 04
00:30:45.593                             : en:Chapter 05
00:35:03.726                             : en:Chapter 06
00:42:32.466                             : en:Chapter 07
00:43:08.419                             : en:Chapter 08

Source Information
Release : Blindspot.S03.1080p.BluRay.AVC.DTS-HD.MA.5.1-PmP (Thanks !)



Note from QxR:
Whilst we are happy for our releases to be re-posted on a platform we aren't on, please do so in an 'as-is' format. We ask that you do not create a new torrent, include all descriptions you see above including the QxR logo, tags, notes and screenshots. If you'd like to become a permanent poster on a website we don't post to, feel free to get in contact with a QxR member.
Category:TV > HEVC/x265
Lang:English  English
Total Size:28.45 GB
Info Hash:db6f7db419184372364096624da65c0538a0da6b
Added By:QxR
Date Added:18-09-2018 03:37:55

Files

File List: 
 File Size
Blindspot (2015) - S03E01 - Back to the Grind (1080p BluRay x265 RCVR).mkv1.15 GB
Blindspot (2015) - S03E02 - Enemy Bag of Tricks (1080p BluRay x265 RCVR).mkv1.27 GB
Blindspot (2015) - S03E03 - Upside Down Craft (1080p BluRay x265 RCVR).mkv1.09 GB
Blindspot (2015) - S03E04 - Gunplay Ricochet (1080p BluRay x265 RCVR).mkv1.22 GB
Blindspot (2015) - S03E05 - This Profound Legacy (1080p BluRay x265 RCVR).mkv1.35 GB
Blindspot (2015) - S03E06 - Adoring Suspect (1080p BluRay x265 RCVR).mkv1.42 GB
Blindspot (2015) - S03E07 - Fix My Present Havoc (1080p BluRay x265 RCVR).mkv1.83 GB
Blindspot (2015) - S03E08 - City Folk Under Wraps (1080p BluRay x265 RCVR).mkv1.16 GB
Blindspot (2015) - S03E09 - Hot Burning Flames (1080p BluRay x265 RCVR).mkv1.80 GB
Blindspot (2015) - S03E10 - Balance of Might (1080p BluRay x265 RCVR).mkv1.23 GB
Blindspot (2015) - S03E11 - Technology Wizards (1080p BluRay x265 RCVR).mkv1.03 GB
Blindspot (2015) - S03E12 - Two Legendary Chums (1080p BluRay x265 RCVR).mkv1.37 GB
Blindspot (2015) - S03E13 - Warning Shot (1080p BluRay x265 RCVR).mkv1,016 MB
Blindspot (2015) - S03E14 - Everlasting (1080p BluRay x265 RCVR).mkv1.13 GB
Blindspot (2015) - S03E15 - Deductions (1080p BluRay x265 RCVR).mkv1.16 GB
Blindspot (2015) - S03E16 - Artful Dodge (1080p BluRay x265 RCVR).mkv1.87 GB
Blindspot (2015) - S03E17 - Mum's the Word (1080p BluRay x265 RCVR).mkv1.26 GB
Blindspot (2015) - S03E18 - Clamorous Night (1080p BluRay x265 RCVR).mkv1.05 GB
Blindspot (2015) - S03E19 - Galaxy of Minds (1080p BluRay x265 RCVR).mkv1.11 GB
Blindspot (2015) - S03E20 - Let It Go (1080p BluRay x265 RCVR).mkv1.06 GB
Blindspot (2015) - S03E21 - Defection (1080p BluRay x265 RCVR).mkv1.10 GB
Blindspot (2015) - S03E22 - In Memory (1080p BluRay x265 RCVR).mkv1.10 GB
Featurettes/Bound and Gag Reel.mkv162 MB
Featurettes/Deleted Scenes/Back to the Grind.mkv58 MB
Featurettes/Deleted Scenes/Clamorous Night.mkv13 MB
Featurettes/Deleted Scenes/Deductions.mkv47 MB
Featurettes/Deleted Scenes/Defection.mkv14 MB
Featurettes/Deleted Scenes/Hot Burning Flames.mkv18 MB
Featurettes/Deleted Scenes/In Memory.mkv127 MB
Featurettes/Deleted Scenes/Upside Down Craft.mkv59 MB
Featurettes/Menu Art/Menu Art - Disk 1.mkv19 MB
Featurettes/Menu Art/Menu Art - Disk 2.mkv19 MB
Featurettes/Menu Art/Menu Art - Disk 3.mkv19 MB
Featurettes/Menu Art/Menu Art - Disk 4.mkv34 MB
Featurettes/Surveillance On Set - Agent Zapata.mkv110 MB



Loading...
Comments

There are currently no comments. Be the first one to write something !

Disclaimer: None of the files shown here are actually hosted or transmitted by this server. The links are provided solely by this site's users. The site moderation is also a service provided by the site's users. The administrator of this site (ettv.tv) cannot be held responsible for what its users post, or any other actions of its users. You may not use this site to distribute or download any material when you do not have the legal rights to do so. It is your own responsibility to adhere to these terms.

Sitemap